Información

Armado con la asombrosa capacidad de reducir su tamaño a la dimensiones de un insecto, el estafador Scott Lang (Paul Rudd) debe sacar a relucir al héroe que lleva dentro y ayudar a su mentor, el doctor Hank Pym (Michael Douglas), a proteger de una nueva generación de amenazas el secreto que se esconde tras el traje de Ant-Man, con un casco que le permite comunicarse con las hormigas. A pesar de los obstáculos aparentemente insuperables que les acechan, Pym y Lang deben planear y llevar a cabo un atraco para intentar salvar al mundo.


Capturas


Datos Técnicos

Ant-man (2015)
BRRip 720p MKV | Resolución: 1280×720p | Codec: H.264 H.265 | Tamaño: 1.99 GB
Idiomas: Latino AC3 5.1 BD – Ingles AC3 5.1 BD
Subtitulos: Latino – Ingles | 5% Recuperación | Servidores: Mega – Uptobox – 1fichier

Descargar Subtitulos

[su_spoiler title=»MediaInfo» style=»fancy» icon=»caret-square»]

Complete name : Ant-man (2015) Dual 720p Brrip.mkv
Format : Matroska
Format version : Version 4 / Version 2
File size : 1.99 GiB
Duration : 1 h 57 min
Overall bit rate : 2 432 kb/s
Movie name : Ant-man (2015) MiCineHD
Encoded date : UTC 2018-03-27T05:21:50Z
Writing application : HandBrake 1.0.7 2017040900
Writing library : Lavf57.7.2

Video
ID : 1
Format : AVC
Format/Info : Advanced Video Codec
Format profile : Main@L3.1
Format settings : CABAC / 4 Ref Frames
Format settings, CABAC : Yes
Format settings, ReFrames : 4 frames
Codec ID : V_MPEG4/ISO/AVC
Duration : 1 h 57 min
Bit rate : 1 800 kb/s
Width : 1 280 pixels
Height : 720 pixels
Display aspect ratio : 16:9
Frame rate mode : Constant
Frame rate : 23.976 (24000/1001) FPS
Color space : YUV
Chroma subsampling : 4:2:0
Bit depth : 8 bits
Scan type : Progressive
Bits/(Pixel*Frame) : 0.081
Stream size : 1.43 GiB (72%)
Writing library : x264 core 148 r2708 86b7198
Default : Yes
Forced : No
Color range : Limited
Color primaries : BT.709
Transfer characteristics : BT.709
Matrix coefficients : BT.709

Audio #1
ID : 2
Format : AC-3
Format/Info : Audio Coding 3
Codec ID : A_AC3
Duration : 1 h 57 min
Bit rate mode : Constant
Bit rate : 320 kb/s
Channel(s) : 6 channels
Channel positions : Front: L C R, Side: L R, LFE
Sampling rate : 48.0 kHz
Frame rate : 31.250 FPS (1536 SPF)
Bit depth : 16 bits
Compression mode : Lossy
Delay relative to video : -5 ms
Stream size : 268 MiB (13%)
Title : Surround
Language : Spanish
Service kind : Complete Main
Default : Yes
Forced : No

Audio #2
ID : 3
Format : AC-3
Format/Info : Audio Coding 3
Codec ID : A_AC3
Duration : 1 h 57 min
Bit rate mode : Constant
Bit rate : 320 kb/s
Channel(s) : 6 channels
Channel positions : Front: L C R, Side: L R, LFE
Sampling rate : 48.0 kHz
Frame rate : 31.250 FPS (1536 SPF)
Bit depth : 16 bits
Compression mode : Lossy
Delay relative to video : -5 ms
Stream size : 268 MiB (13%)
Title : Surround
Language : English
Service kind : Complete Main
Default : No
Forced : No

Menu
00:00:00.000 : :Chapter 1
00:02:08.837 : :Chapter 2
00:08:40.186 : :Chapter 3
00:15:24.841 : :Chapter 4
00:19:59.740 : :Chapter 5
00:27:50.210 : :Chapter 6
00:33:07.235 : :Chapter 7
00:38:53.957 : :Chapter 8
00:44:36.465 : :Chapter 9
00:49:22.460 : :Chapter 10
00:57:44.252 : :Chapter 11
01:00:48.895 : :Chapter 12
01:06:31.529 : :Chapter 13
01:23:21.288 : :Chapter 14
01:34:20.530 : :Chapter 15
01:47:34.323 : :Chapter 16

[/su_spoiler]


Descargas

Enlaces Públicos

Contraseña: micinehd.com