El increíble castillo vagabundo Full 1080p HD BRrip Latino - Japones - Cast

ハウルの動く城
1 Star2 Stars3 Stars4 Stars5 Stars (1 votes, average: 5,00 out of 5)
Cargando…

1h 59m 2004 36 lecturas

Información

Sophie es una joven de 18 años que trabaja sin descanso en la tienda de sombreros de la familia. En uno de sus frecuentes paseos conoce al enigmático mago Howl, lo que despierta la ira de la Bruja del Páramo, que odia a Howl con todas sus fuerzas .Cuando Sophie vuelve a la tienda, la Bruja se hace pasar por una clienta para acercarse a ella y lanzarle un hechizo… ¡que convierte a Sophie en una anciana de 90 años! Sophie, que no puede revelar su auténtica identidad, recurre a Howl para buscar una solución a su problema. Para ello se embarca en un viaje fantástico en el castillo ambulante del mago, habitado por personajes de lo más curioso. Sophie necesita ayuda pero quizás sea Howl el que realmente está en apuros.. Tras el éxito mundial de «El viaje de Chihiro», Miyazaki vuelve al panorama internacional con otra historia fantástica de animación de los estudios Ghibli.


Capturas


Datos Técnicos

Howls Moving Castle (2004)
BRRip 1080p MKV | Resolución: 1920×1038p | Codec: H.264 | Tamaño: 4.64 GB
Idiomas: Latino AC3 5.1 – Ingles AC3 5.1 – Castellano 5.1
Subtitulos: Latino | 5% Recuperación 

[su_spoiler title=»MediaInfo» style=»fancy» icon=»caret-square»]

General
Complete name : Howls Moving Castle (2004) Dual Full 1080p HD.mkv
Format : Matroska
Format version : Version 4 / Version 2
File size : 4.64 GiB
Duration : 1 h 59 min
Overall bit rate : 5 581 kb/s
Movie name : Howls Moving Castle (2004) Dual Full 1080p HD
Encoded date : UTC 2018-02-19 19:12:06 / UTC 2018-02-19T07:18:53Z
Writing application : mkvmerge v15.0.0 (‘Duel with the Devil’) 64-bit
Writing library : libebml v1.3.5 + libmatroska v1.4.5 / Lavf57.7.2

Video
ID : 1
Format : AVC
Format/Info : Advanced Video Codec
Format profile : Main@L4
Format settings : CABAC / 4 Ref Frames
Format settings, CABAC : Yes
Format settings, ReFrames : 4 frames
Codec ID : V_MPEG4/ISO/AVC
Duration : 1 h 59 min
Bit rate : 4 190 kb/s
Width : 1 920 pixels
Height : 1 038 pixels
Display aspect ratio : 1.85:1
Frame rate mode : Constant
Frame rate : 23.976 (24000/1001) FPS
Color space : YUV
Chroma subsampling : 4:2:0
Bit depth : 8 bits
Scan type : Progressive
Bits/(Pixel*Frame) : 0.088
Stream size : 3.49 GiB (75%)
Title : Howls Moving Castle (2004) Dual Full 1080p HD
Writing library : x264 core 148 r2708 86b7198
Encoding settings : cabac=1 / ref=2 / deblock=1:0:0 / analyse=0x1:0x111 / me=hex / subme=6 / psy=1 / psy_rd=1.00:0.00 / mixed_ref=1 / me_range=16 / chroma_me=1 / trellis=1 / 8x8dct=0 / cqm=0 / deadzone=21,11 / fast_pskip=1 / chroma_qp_offset=-2 / threads=12 / lookahead_threads=2 / sliced_threads=0 / nr=0 / decimate=1 / interlaced=0 / bluray_compat=0 / constrained_intra=0 / bframes=3 / b_pyramid=2 / b_adapt=1 / b_bias=0 / direct=1 / weightb=1 / open_gop=0 / weightp=1 / keyint=240 / keyint_min=24 / scenecut=40 / intra_refresh=0 / rc_lookahead=30 / rc=crf / mbtree=1 / crf=20.0 / qcomp=0.60 / qpmin=0 / qpmax=69 / qpstep=4 / vbv_maxrate=20000 / vbv_bufsize=25000 / crf_max=0.0 / nal_hrd=none / filler=0 / ip_ratio=1.40 / aq=1:1.00
Default : Yes
Forced : No
Color range : Limited
Color primaries : BT.709
Transfer characteristics : BT.709
Matrix coefficients : BT.709
Statistics Tags Issue : mkvmerge v15.0.0 (‘Duel with the Devil’) 64-bit 2018-02-19 19:12:06 / mkvmerge v15.0.0 (‘Duel with the Devil’) 64-bit 2018-02-19 19:12:06 / UTC 2018-02-19T07:18:53Z
FromStats_BitRate : 4298789
FromStats_Duration : 01:59:09.184000000
FromStats_FrameCount : 171408
FromStats_StreamSize : 3841605062

Audio #1
ID : 2
Format : AC-3
Format/Info : Audio Coding 3
Codec ID : A_AC3
Duration : 1 h 59 min
Bit rate mode : Constant
Bit rate : 448 kb/s
Channel(s) : 6 channels
Channel positions : Front: L C R, Side: L R, LFE
Sampling rate : 48.0 kHz
Frame rate : 31.250 FPS (1536 SPF)
Bit depth : 16 bits
Compression mode : Lossy
Delay relative to video : -5 ms
Stream size : 382 MiB (8%)
Title : Latino
Language : Spanish
Service kind : Complete Main
Default : Yes
Forced : No
Statistics Tags Issue : mkvmerge v15.0.0 (‘Duel with the Devil’) 64-bit 2018-02-19 19:12:06 / mkvmerge v15.0.0 (‘Duel with the Devil’) 64-bit 2018-02-19 19:12:06 / UTC 2018-02-19T07:18:53Z
FromStats_BitRate : 448000
FromStats_Duration : 01:59:07.712000000
FromStats_FrameCount : 223366
FromStats_StreamSize : 400271872

Audio #2
ID : 3
Format : AC-3
Format/Info : Audio Coding 3
Codec ID : A_AC3
Duration : 1 h 59 min
Bit rate mode : Constant
Bit rate : 448 kb/s
Channel(s) : 6 channels
Channel positions : Front: L C R, Side: L R, LFE
Sampling rate : 48.0 kHz
Frame rate : 31.250 FPS (1536 SPF)
Bit depth : 16 bits
Compression mode : Lossy
Delay relative to video : -5 ms
Stream size : 382 MiB (8%)
Title : Surround
Language : Japanese
Service kind : Complete Main
Default : No
Forced : No
Statistics Tags Issue : mkvmerge v15.0.0 (‘Duel with the Devil’) 64-bit 2018-02-19 19:12:06 / mkvmerge v15.0.0 (‘Duel with the Devil’) 64-bit 2018-02-19 19:12:06 / UTC 2018-02-19T07:18:53Z
FromStats_BitRate : 448000
FromStats_Duration : 01:59:09.120000000
FromStats_FrameCount : 223410
FromStats_StreamSize : 400350720

Audio #3
ID : 4
Format : AC-3
Format/Info : Audio Coding 3
Codec ID : A_AC3
Duration : 1 h 59 min
Bit rate mode : Constant
Bit rate : 384 kb/s
Channel(s) : 6 channels
Channel positions : Front: L C R, Side: L R, LFE
Sampling rate : 48.0 kHz
Frame rate : 31.250 FPS (1536 SPF)
Bit depth : 16 bits
Compression mode : Lossy
Delay relative to video : -5 ms
Stream size : 327 MiB (7%)
Title : Castellano
Language : Spanish
Service kind : Complete Main
Default : No
Forced : No
Statistics Tags Issue : mkvmerge v15.0.0 (‘Duel with the Devil’) 64-bit 2018-02-19 19:12:06 / mkvmerge v15.0.0 (‘Duel with the Devil’) 64-bit 2018-02-19 19:12:06 / UTC 2018-02-19T07:18:53Z
FromStats_BitRate : 384000
FromStats_Duration : 01:59:06.848000000
FromStats_FrameCount : 223339
FromStats_StreamSize : 343048704

Text
ID : 5
Format : ASS
Codec ID : S_TEXT/ASS
Codec ID/Info : Advanced Sub Station Alpha
Compression mode : Lossless
Title : Latino
Language : Spanish
Default : Yes
Forced : No
Statistics Tags Issue : mkvmerge v15.0.0 (‘Duel with the Devil’) 64-bit 2018-02-19 19:12:06 / mkvmerge v15.0.0 (‘Duel with the Devil’) 64-bit 2018-02-19 19:12:06 / UTC 2018-02-19T07:18:53Z
FromStats_BitRate : 70
FromStats_Duration : 01:57:59.220000000
FromStats_FrameCount : 1155
FromStats_StreamSize : 62773

Menu
00:00:00.084 : :00:00:00.000
00:01:04.273 : :00:01:04.273
00:04:58.674 : :00:04:58.632
00:12:22.867 : :00:12:22.825
00:18:23.269 : :00:18:23.269
00:23:16.771 : :00:23:16.770
00:28:51.939 : :00:28:51.939
00:33:13.784 : :00:33:13.783
00:40:10.241 : :00:40:10.241
00:45:30.395 : :00:45:30.394
00:49:15.870 : :00:49:15.870
00:55:26.365 : :00:55:26.365
00:58:32.509 : :00:58:32.509
01:04:51.221 : :01:04:51.221
01:10:53.708 : :01:10:53.708
01:15:24.353 : :01:15:24.353
01:20:25.488 : :01:20:25.487
01:25:19.490 : :01:25:19.489
01:32:30.879 : :01:32:30.879
01:38:35.577 : :01:38:35.576
01:44:22.423 : :01:44:22.423
01:48:20.786 : :01:48:20.786
01:52:19.483 : :01:52:19.483
01:54:39.039 : :01:54:39.039

[/su_spoiler]


Descargas

1Fichier UptoBox Mega

Contraseña: micinehd.com

Links VIP

[su_spoiler title=»Links VIP» style=»fancy» icon=»caret-square»]

Inicia Sesión para ver enlaces directos!

[/su_spoiler]