G.I. Joe: El Contraataque Full 1080p BRrip Latino - Ingles

G.I. Joe: Retaliation
1 Star2 Stars3 Stars4 Stars5 Stars (No Ratings Yet)
Cargando…

1h 50m 2013 511 views

Información

En esta ocasión, los G.I Joes no solo tendrán que luchar contra su enemigo mortal, Cobra, sino que además se verán obligados a lidiar con las amenazas de dentro del gobierno que ponen en peligro su propia existencia.Dirigida por Jon M. Chu, y producida por Lorenzo di Bonaventura y Brian Goldner, con un guión de Rhett Reese y Paul Wernick. Basada en los personajes de G.I. Joe® de Hasbro.


Capturas


Datos Técnicos

G.I. Joe Retaliation (2013)
BRRip 1080p MKV | Resolución: 1920×1080p | Codec: H.264 | Tamaño: 3.2 GB
Idiomas: Latino AC3 5.1 BD – Ingles AC3 5.1 BD
Subtitulos: Latino – Ingles | 5% Recuperación | Servidores: Mega – Uptobox – 1fichier

MediaInfo

General
Complete name : G.I. Joe Retaliation (2013) Dual Full 1080p HD.mkv
Format : Matroska
Format version : Version 4 / Version 2
File size : 3.20 GiB
Duration : 1 h 50 min
Overall bit rate : 4 154 kb/s
Movie name : G.I. Joe Retaliation (2013) Dual Full 1080p HD
Encoded date : UTC 2018-02-23 21:47:30
Writing application : mkvmerge v15.0.0 (‘Duel with the Devil’) 64-bit
Writing library : libebml v1.3.5 + libmatroska v1.4.5

Video
ID : 1
Format : AVC
Format/Info : Advanced Video Codec
Format profile : High@L4.1
Format settings : CABAC / 2 Ref Frames
Format settings, CABAC : Yes
Format settings, ReFrames : 2 frames
Codec ID : V_MPEG4/ISO/AVC
Duration : 1 h 50 min
Bit rate : 3 247 kb/s
Width : 1 920 pixels
Height : 1 080 pixels
Display aspect ratio : 16:9
Frame rate mode : Constant
Frame rate : 23.976 (24000/1001) FPS
Color space : YUV
Chroma subsampling : 4:2:0
Bit depth : 8 bits
Scan type : Progressive
Bits/(Pixel*Frame) : 0.065
Stream size : 2.50 GiB (78%)
Title : G.I. Joe Retaliation (2013) Dual Full 1080p HD
Writing library : x264 core
Default : Yes
Forced : No
Color range : Limited
Color primaries : BT.709
Transfer characteristics : BT.709
Matrix coefficients : BT.709

Audio #1
ID : 2
Format : AC-3
Format/Info : Audio Coding 3
Codec ID : A_AC3
Duration : 1 h 50 min
Bit rate mode : Constant
Bit rate : 448 kb/s
Channel(s) : 6 channels
Channel positions : Front: L C R, Side: L R, LFE
Sampling rate : 48.0 kHz
Frame rate : 31.250 FPS (1536 SPF)
Bit depth : 16 bits
Compression mode : Lossy
Stream size : 353 MiB (11%)
Title : Latino
Service kind : Complete Main
Default : Yes
Forced : No

Audio #2
ID : 3
Format : AC-3
Format/Info : Audio Coding 3
Codec ID : A_AC3
Duration : 1 h 50 min
Bit rate mode : Constant
Bit rate : 448 kb/s
Channel(s) : 6 channels
Channel positions : Front: L C R, Side: L R, LFE
Sampling rate : 48.0 kHz
Frame rate : 31.250 FPS (1536 SPF)
Bit depth : 16 bits
Compression mode : Lossy
Stream size : 353 MiB (11%)
Title : Ingles
Service kind : Complete Main
Default : No
Forced : No

Text #1
ID : 4
Format : VobSub
Muxing mode : zlib
Codec ID : S_VOBSUB
Codec ID/Info : Picture based subtitle format used on DVDs
Duration : 1 h 39 min
Bit rate : 6 806 b/s
Count of elements : 1035
Stream size : 4.85 MiB (0%)
Title : Subtitulos Español
Default : No
Forced : No

Text #2
ID : 5
Format : VobSub
Muxing mode : zlib
Codec ID : S_VOBSUB
Codec ID/Info : Picture based subtitle format used on DVDs
Duration : 1 h 39 min
Bit rate : 7 557 b/s
Count of elements : 1158
Stream size : 5.39 MiB (0%)
Title : Subtitulos Ingles
Default : No
Forced : No


Descargas

Enlaces Públicos

Contraseña: micinehd.com

Links VIP

Links VIP

Inicia Sesión para ver enlaces directos!