Guardianes de la galaxia Vol. 2 720p BRrip IMAX Latino - Ingles

Guardians of the Galaxy Vol. 2
1 Star2 Stars3 Stars4 Stars5 Stars (1 votes, average: 5,00 out of 5)
Cargando…

2h 17m 2017 772 views

Información

Continúan las aventuras del equipo en su travesía por los confines del cosmos. Los Guardianes deberán luchar para mantener unida a su nueva familia mientras intentan resolver el misterio de los verdaderos orígenes de Peter Quill. Viejos rivales se convertirán en nuevos aliados, y queridos personajes de los cómics clásicos acudirán en ayuda de nuestros héroes a medida que el Universo Cinematográfico de Marvel continúa expandiéndose.


Capturas


Datos Técnicos

Guardians Of The Galaxy Vol. 2 (2017)
BRRip 720p MKV | Resolución: 1280×720p | Codec: H.264 H.265 | Tamaño: 2.02 GB
Idiomas: Latino AC3 5.1 BD – Ingles AC3 5.1 BD
Subtitulos: Latino – Ingles | 5% Recuperación | Servidores: Mega – Uptobox – 1fichier

[su_spoiler title=»MediaInfo» style=»fancy» icon=»caret-square»]

Complete name : Guardians Of The Galaxy Vol. 2 (2017) Dual 720p Brrip Imax.mkv
Format : Matroska
Format version : Version 4 / Version 2
File size : 2.02 GiB
Duration : 2 h 15 min
Overall bit rate : 2 128 kb/s
Movie name : Guardians Of The Galaxy Vol. 2 (2017) Dual 720p Brrip Imax
Encoded date : UTC 2018-03-14 05:56:29 / UTC 2018-03-14T04:56:57Z
Writing application : mkvmerge v15.0.0 (‘Duel with the Devil’) 64-bit
Writing library : libebml v1.3.5 + libmatroska v1.4.5 / Lavf57.7.2

Video
ID : 1
Format : AVC
Format/Info : Advanced Video Codec
Format profile : Main@L3.1
Format settings : CABAC / 4 Ref Frames
Format settings, CABAC : Yes
Format settings, ReFrames : 4 frames
Format settings, GOP : M=1, N=3
Codec ID : V_MPEG4/ISO/AVC
Duration : 2 h 15 min
Bit rate : 1 500 kb/s
Width : 1 280 pixels
Height : 720 pixels
Display aspect ratio : 16:9
Frame rate mode : Constant
Frame rate : 23.976 (24000/1001) FPS
Color space : YUV
Chroma subsampling : 4:2:0
Bit depth : 8 bits
Scan type : Progressive
Bits/(Pixel*Frame) : 0.068
Stream size : 1.37 GiB (68%)
Title : Guardians Of The Galaxy Vol. 2 (2017) Dual 720p Brrip Imax
Writing library : x264 core 148 r2708 86b7198
Default : Yes
Forced : No
Color range : Limited
Color primaries : BT.709
Transfer characteristics : BT.709
Matrix coefficients : BT.709
Statistics Tags Issue : mkvmerge v15.0.0 (‘Duel with the Devil’) 64-bit 2018-03-14 05:56:29 / mkvmerge v15.0.0 (‘Duel with the Devil’) 64-bit 2018-03-14 05:56:29 / UTC 2018-03-14T04:56:57Z
FromStats_BitRate : 1486062
FromStats_Duration : 02:15:44.095000000
FromStats_FrameCount : 195263
FromStats_StreamSize : 1512828769

Audio #1
ID : 2
Format : AC-3
Format/Info : Audio Coding 3
Codec ID : A_AC3
Duration : 2 h 15 min
Bit rate mode : Constant
Bit rate : 320 kb/s
Channel(s) : 6 channels
Channel positions : Front: L C R, Side: L R, LFE
Sampling rate : 48.0 kHz
Frame rate : 31.250 FPS (1536 SPF)
Bit depth : 16 bits
Compression mode : Lossy
Delay relative to video : -5 ms
Stream size : 311 MiB (15%)
Title : Surround
Language : Spanish
Service kind : Complete Main
Default : Yes
Forced : No
Statistics Tags Issue : mkvmerge v15.0.0 (‘Duel with the Devil’) 64-bit 2018-03-14 05:56:29 / mkvmerge v15.0.0 (‘Duel with the Devil’) 64-bit 2018-03-14 05:56:29 / UTC 2018-03-14T04:56:57Z
FromStats_BitRate : 320000
FromStats_Duration : 02:15:44.064000000
FromStats_FrameCount : 254502
FromStats_StreamSize : 325762560

Audio #2
ID : 3
Format : AC-3
Format/Info : Audio Coding 3
Codec ID : A_AC3
Duration : 2 h 15 min
Bit rate mode : Constant
Bit rate : 320 kb/s
Channel(s) : 6 channels
Channel positions : Front: L C R, Side: L R, LFE
Sampling rate : 48.0 kHz
Frame rate : 31.250 FPS (1536 SPF)
Bit depth : 16 bits
Compression mode : Lossy
Delay relative to video : -5 ms
Stream size : 311 MiB (15%)
Title : Surround
Language : English
Service kind : Complete Main
Default : No
Forced : No
Statistics Tags Issue : mkvmerge v15.0.0 (‘Duel with the Devil’) 64-bit 2018-03-14 05:56:29 / mkvmerge v15.0.0 (‘Duel with the Devil’) 64-bit 2018-03-14 05:56:29 / UTC 2018-03-14T04:56:57Z
FromStats_BitRate : 320000
FromStats_Duration : 02:15:44.064000000
FromStats_FrameCount : 254502
FromStats_StreamSize : 325762560

Text
ID : 4
Format : UTF-8
Codec ID : S_TEXT/UTF8
Codec ID/Info : UTF-8 Plain Text
Title : Latino
Language : Spanish
Default : Yes
Forced : No
Statistics Tags Issue : mkvmerge v15.0.0 (‘Duel with the Devil’) 64-bit 2018-03-14 05:56:29 / mkvmerge v15.0.0 (‘Duel with the Devil’) 64-bit 2018-03-14 05:56:29 / UTC 2018-03-14T04:56:57Z
FromStats_BitRate : 49
FromStats_Duration : 02:14:46.737000000
FromStats_FrameCount : 1587
FromStats_StreamSize : 49927

[/su_spoiler]


Descargas

Enlaces Públicos

Contraseña: micinehd.com