Immortals Full 1080p BRrip Latino - Ingles

Immortals
Imagen Immortals Full 1080p BRrip Latino – Ingles
1 Star2 Stars3 Stars4 Stars5 Stars (1 votes, average: 4,00 out of 5)
Cargando…

1h 50m 2011 111 lecturas

Información

Enloquecido por el poder, el brutal rey Hiperión ha declarado la guerra a los hombres. Después de reunir a un ejército sediento de sangre formado por soldados que él mismo mandó desfigurar, Hiperión quema Grecia mientras busca un arma de poder inconcebible: el legendario arco Epiro, hecho por Ares en el Olimpo. El hombre que posea ese arco podrá liberar a los Titanes, que están encerrados en el monte Tártaro desde el principio de los tiempos, y claman venganza. Sin embargo, en manos de Hiperión, el arco significaría la destrucción de la raza humana y la aniquilación de los dioses. La ley prohíbe que los dioses se entrometan en los conflictos humanos, y nada pueden hacer para detener al rey. Pero la esperanza renace cuando Zeus encomienda al campesino Teseo la misión de acabar con Hiperión.


Capturas


Datos Técnicos

Immortals (2011)
BRRip 1080p MKV | Resolución: 1920×1080p | Codec: H.264 | Tamaño: 4.23 GB
Idiomas: Latino AC3 2.0 DVD – Ingles DTS 5.1 BD
Subtitulos: Latino – Ingles | 5% Recuperación | Servidores: Mega – Uptobox – 1fichier

[su_spoiler title=»MediaInfo» style=»fancy» icon=»caret-square»]

Complete name : Immortals (2011) Dual Full 1080p BRrip.mkv
Format : Matroska
Format version : Version 4 / Version 2
File size : 4.23 GiB
Duration : 1 h 50 min
Overall bit rate : 5 480 kb/s
Movie name : Immortals (2011) Dual FULL 1080p BRrip
Encoded date : UTC 2018-03-11 08:27:21
Writing application : mkvmerge v15.0.0 (‘Duel with the Devil’) 64-bit
Writing library : libebml v1.3.5 + libmatroska v1.4.5

Video
ID : 1
Format : AVC
Format/Info : Advanced Video Codec
Format profile : High@L4.1
Format settings : CABAC / 4 Ref Frames
Format settings, CABAC : Yes
Format settings, ReFrames : 4 frames
Codec ID : V_MPEG4/ISO/AVC
Duration : 1 h 50 min
Bit rate : 3 763 kb/s
Width : 1 920 pixels
Height : 1 080 pixels
Display aspect ratio : 16:9
Frame rate mode : Constant
Frame rate : 23.976 FPS
Color space : YUV
Chroma subsampling : 4:2:0
Bit depth : 8 bits
Scan type : Progressive
Bits/(Pixel*Frame) : 0.076
Stream size : 2.90 GiB (69%)
Title : Immortals (2011) Dual FULL 1080p BRrip
Writing library : x264 core 142 r2479 dd79a61
Default : Yes
Forced : No
Color range : Limited
Color primaries : BT.709
Transfer characteristics : BT.709
Matrix coefficients : BT.709

Audio #1
ID : 2
Format : AC-3
Format/Info : Audio Coding 3
Codec ID : A_AC3
Duration : 1 h 50 min
Bit rate mode : Constant
Bit rate : 192 kb/s
Channel(s) : 2 channels
Channel positions : Front: L R
Sampling rate : 48.0 kHz
Frame rate : 31.250 FPS (1536 SPF)
Bit depth : 16 bits
Compression mode : Lossy
Delay relative to video : -63 ms
Stream size : 152 MiB (4%)
Title : Latino
Language : Spanish
Service kind : Complete Main
Default : Yes
Forced : No

Audio #2
ID : 3
Format : DTS
Format/Info : Digital Theater Systems
Codec ID : A_DTS
Duration : 1 h 50 min
Bit rate mode : Constant
Bit rate : 1 509 kb/s
Channel(s) : 6 channels
Channel positions : Front: L C R, Side: L R, LFE
Sampling rate : 48.0 kHz
Frame rate : 93.750 FPS (512 SPF)
Bit depth : 24 bits
Compression mode : Lossy
Delay relative to video : -83 ms
Stream size : 1.16 GiB (28%)
Title : Ingles
Language : English
Default : No
Forced : No

Text #1
ID : 4
Format : PGS
Muxing mode : zlib
Codec ID : S_HDMV/PGS
Codec ID/Info : Picture based subtitle format used on BDs/HD-DVDs
Duration : 1 h 49 min
Bit rate : 19.3 kb/s
Count of elements : 1318
Stream size : 15.2 MiB (0%)
Title : Latino [PGS]
Language : Spanish
Default : No
Forced : No

Text #2
ID : 5
Format : PGS
Muxing mode : zlib
Codec ID : S_HDMV/PGS
Codec ID/Info : Picture based subtitle format used on BDs/HD-DVDs
Duration : 1 h 49 min
Bit rate : 23.8 kb/s
Count of elements : 1686
Stream size : 18.5 MiB (0%)
Title : Ingles [PGS]
Language : English
Default : No
Forced : No

[/su_spoiler]


Descargas

Enlaces Públicos

Contraseña: micinehd.com

Links VIP

[su_spoiler title=»Links VIP» style=»fancy» icon=»caret-square»]

Inicia Sesión para ver enlaces directos!

[/su_spoiler]