Información

En esta ocasión el imponente superhéroe Iron Man intentará mejorar su armadura mediante una nueva tecnología y, entre otros personajes, estará acompañado de su gran amiga Pepper Potts (Gwyneth Paltrow), su aliado de armas James Rhodes y su guardaespaldas Happy Hogan. Esta nueva entrega de la historia se inspira en la colección de comics titulada ‘Extremis’, escrita por Warren Ellis y dibujada por Adi Granov que fue publicada entre el año 2005 y el año 2006. En esta parte, el argumento se desarrolla en un mundo más realista y menos fantasioso que el de las anteriores, donde los acontecimientos sucedidos en ‘Marvel: Los Vengadores’ tienen constancia pero no resultan ser el eje central de la película. De esta forma, el tercer capítulo de la saga Iron Man revolucionará el estilo de las anteriores conservando su esencia, pero con originales innovaciones que sorprenderán a todos los fans de la serie.


Capturas


Datos Técnicos

Iron Man 3 (2013)
BRRip 1080p MKV | Resolución: 1920×1080p | Codec: H.264 | Tamaño: 4.5 GB
Idiomas: Latino AC3 5.1 BD – Ingles DTS 5.1 BD
Subtitulos: Latino – Forzados – Ingles | 5% Recuperación | Servidores: Mega – Uptobox – 1fichier

[su_spoiler title=»MediaInfo» style=»fancy» icon=»caret-square»]

Complete name : Iron Man 3 (2013) Dual Full 1080p BRrip.mkv
Format : Matroska
Format version : Version 4 / Version 2
File size : 4.56 GiB
Duration : 2 h 10 min
Overall bit rate : 5 004 kb/s
Movie name : Iron Man 3 (2013) Dual Full 1080p BRrip MiCineHD
Encoded date : UTC 2018-03-11 19:22:05 / UTC 2017-11-14T14:05:25Z
Writing application : mkvmerge v15.0.0 (‘Duel with the Devil’) 64-bit
Writing library : libebml v1.3.5 + libmatroska v1.4.5 / Lavf57.7.2

Video
ID : 1
Format : AVC
Format/Info : Advanced Video Codec
Format profile : High@L4.1
Format settings : CABAC / 4 Ref Frames
Format settings, CABAC : Yes
Format settings, ReFrames : 4 frames
Codec ID : V_MPEG4/ISO/AVC
Duration : 2 h 10 min
Bit rate : 2 756 kb/s
Width : 1 920 pixels
Height : 1 080 pixels
Display aspect ratio : 16:9
Frame rate mode : Constant
Frame rate : 23.976 (24000/1001) FPS
Color space : YUV
Chroma subsampling : 4:2:0
Bit depth : 8 bits
Scan type : Progressive
Bits/(Pixel*Frame) : 0.055
Stream size : 2.51 GiB (55%)
Title : Iron Man 3 (2013) Dual Full 1080p BRrip
Writing library : x264 core 148 r2708 86b7198
Language : English
Default : Yes
Forced : No
Color range : Limited
Color primaries : BT.709
Transfer characteristics : BT.709
Matrix coefficients : BT.709
Statistics Tags Issue : mkvmerge v15.0.0 (‘Duel with the Devil’) 64-bit 2018-03-11 19:22:05 / mkvmerge v15.0.0 (‘Duel with the Devil’) 64-bit 2018-03-11 19:22:05 / UTC 2017-11-14T14:05:25Z
FromStats_BitRate : 2841314
FromStats_Duration : 02:10:32.825000000
FromStats_FrameCount : 187800
FromStats_StreamSize : 2781940369

Audio #1
ID : 2
Format : AC-3
Format/Info : Audio Coding 3
Codec ID : A_AC3
Duration : 2 h 10 min
Bit rate mode : Constant
Bit rate : 640 kb/s
Channel(s) : 6 channels
Channel positions : Front: L C R, Side: L R, LFE
Sampling rate : 48.0 kHz
Frame rate : 31.250 FPS (1536 SPF)
Bit depth : 16 bits
Compression mode : Lossy
Stream size : 598 MiB (13%)
Title : Latino
Language : Spanish
Service kind : Complete Main
Default : Yes
Forced : No
Statistics Tags Issue : mkvmerge v15.0.0 (‘Duel with the Devil’) 64-bit 2018-03-11 19:22:05 / mkvmerge v15.0.0 (‘Duel with the Devil’) 64-bit 2018-03-11 19:22:05 / UTC 2017-11-14T14:05:25Z
FromStats_BitRate : 640000
FromStats_Duration : 02:10:32.896000000
FromStats_FrameCount : 244778
FromStats_StreamSize : 626631680

Audio #2
ID : 3
Format : DTS
Format/Info : Digital Theater Systems
Codec ID : A_DTS
Duration : 2 h 10 min
Bit rate mode : Constant
Bit rate : 1 509 kb/s
Channel(s) : 6 channels
Channel positions : Front: L C R, Side: L R, LFE
Sampling rate : 48.0 kHz
Frame rate : 93.750 FPS (512 SPF)
Bit depth : 24 bits
Compression mode : Lossy
Stream size : 1.38 GiB (30%)
Title : Ingles
Language : English
Default : No
Forced : No
Statistics Tags Issue : mkvmerge v15.0.0 (‘Duel with the Devil’) 64-bit 2018-03-11 19:22:05 / mkvmerge v15.0.0 (‘Duel with the Devil’) 64-bit 2018-03-11 19:22:05 / UTC 2017-11-14T14:05:25Z
FromStats_BitRate : 1508999
FromStats_Duration : 02:10:32.875000000
FromStats_FrameCount : 734332
FromStats_StreamSize : 1477475984

Text #1
ID : 4
Format : PGS
Muxing mode : zlib
Codec ID : S_HDMV/PGS
Codec ID/Info : Picture based subtitle format used on BDs/HD-DVDs
Title : Forzados PGS
Language : Spanish
Default : Yes
Forced : No
Statistics Tags Issue : mkvmerge v15.0.0 (‘Duel with the Devil’) 64-bit 2018-03-11 19:22:05 / mkvmerge v15.0.0 (‘Duel with the Devil’) 64-bit 2018-03-11 19:22:05 / UTC 2017-11-14T14:05:25Z
FromStats_BitRate : 74
FromStats_Duration : 02:01:18.229000000
FromStats_FrameCount : 8
FromStats_StreamSize : 67906

Text #2
ID : 5
Format : PGS
Muxing mode : zlib
Codec ID : S_HDMV/PGS
Codec ID/Info : Picture based subtitle format used on BDs/HD-DVDs
Title : Latino PGS
Language : Spanish
Default : No
Forced : No
Statistics Tags Issue : mkvmerge v15.0.0 (‘Duel with the Devil’) 64-bit 2018-03-11 19:22:05 / mkvmerge v15.0.0 (‘Duel with the Devil’) 64-bit 2018-03-11 19:22:05 / UTC 2017-11-14T14:05:25Z
FromStats_BitRate : 37577
FromStats_Duration : 02:10:17.977000000
FromStats_FrameCount : 3457
FromStats_StreamSize : 36722238

Menu
00:00:00.000 : :00:00:00.000
00:04:52.751 : :00:04:52.751
00:07:55.433 : :00:07:55.433
00:12:12.440 : :00:12:12.440
00:19:04.101 : :00:19:04.101
00:23:47.885 : :00:23:47.885
00:29:47.703 : :00:29:47.703
00:39:46.384 : :00:39:46.384
00:45:56.045 : :00:45:56.045
00:59:19.639 : :00:59:19.639
01:01:56.922 : :01:01:56.922
01:09:24.452 : :01:09:24.452
01:18:41.508 : :01:18:41.508
01:23:52.945 : :01:23:52.945
01:37:55.995 : :01:37:55.995
01:56:18.305 : :01:56:18.305
01:59:38.755 : :01:59:38.755

[/su_spoiler]


Descargas

Enlaces Públicos

Contraseña: micinehd.com

Links VIP

[su_spoiler title=»Links VIP» style=»fancy» icon=»caret-square»]

Inicia Sesión para ver enlaces directos!

[/su_spoiler]