La novia de Chucky Full 1080p BRrip Latino - Ingles

Bride of Chucky
Imagen La novia de Chucky Full 1080p BRrip Latino – Ingles
  • Título original:Bride of Chucky
  • Fecha de lanzamiento:16-10-1998
  • Género:Cine Clásico, Terror
  • Directores:Ronny Yu
  • Puntuación:5.0 1 votos
1 Star2 Stars3 Stars4 Stars5 Stars (1 votes, average: 5,00 out of 5)
Cargando...

1h 29m 1998 166 lecturas

Información

Chucky, el implacable muñeco asesino, vuelve a la vida. Tiffany, se ha encargado de resucitarlo. Pero su amado no reacciona como ella esperaba. Chucky, que echa de menos la compañía de alguién como él, consigue traspasar el alma de Tiffany a una muñeca. Con su ayuda, Chucky aspira a recuperar su forma humana. Mientras llega el momento, deja a su paso un reguero de muerte y destrucción.


Capturas


Datos Técnicos

Bride of Chucky (1998)
BRRip 1080p MKV | Resolución: 1920×1080p | Codec: H.264 | Tamaño: 3.6 GB
Idiomas: Latino AC3 5.1 BD – Ingles AC3 5.1 BD
Subtitulos: Latino – Ingles | 5% Recuperación | Servidores: Mega – Uptobox – 1fichier

[su_spoiler title=»MediaInfo» style=»fancy» icon=»caret-square»]

Complete name : Bride of Chucky (1998) Dual Full 1080p BRrip.mkv
Format : Matroska
Format version : Version 4 / Version 2
File size : 3.64 GiB
Duration : 1 h 28 min
Overall bit rate mode : Variable
Overall bit rate : 5 864 kb/s
Movie name : Bride of Chucky (1998)
Encoded date : UTC 2018-03-15 02:15:10
Writing application : mkvmerge v15.0.0 (‘Duel with the Devil’) 64-bit
Writing library : libebml v1.3.5 + libmatroska v1.4.5

Video
ID : 1
Format : AVC
Format/Info : Advanced Video Codec
Format profile : Baseline@L4
Format settings : 1 Ref Frames
Format settings, CABAC : No
Format settings, ReFrames : 1 frame
Codec ID : V_MPEG4/ISO/AVC
Duration : 1 h 28 min
Bit rate mode : Variable
Bit rate : 5 000 kb/s
Maximum bit rate : 40.0 Mb/s
Width : 1 920 pixels
Height : 1 080 pixels
Display aspect ratio : 16:9
Frame rate mode : Constant
Frame rate : 23.976 (24000/1001) FPS
Color space : YUV
Chroma subsampling : 4:2:0
Bit depth : 8 bits
Scan type : Progressive
Bits/(Pixel*Frame) : 0.101
Stream size : 3.08 GiB (85%)
Title : Bride of Chucky (1998)
Writing library : x264 core 120
Default : No
Forced : No

Audio #1
ID : 2
Format : AC-3
Format/Info : Audio Coding 3
Codec ID : A_AC3
Duration : 1 h 28 min
Bit rate mode : Constant
Bit rate : 448 kb/s
Channel(s) : 6 channels
Channel positions : Front: L C R, Side: L R, LFE
Sampling rate : 48.0 kHz
Frame rate : 31.250 FPS (1536 SPF)
Bit depth : 16 bits
Compression mode : Lossy
Delay relative to video : 8 ms
Stream size : 285 MiB (8%)
Title : Latino
Language : Spanish
Service kind : Complete Main
Default : Yes
Forced : No

Audio #2
ID : 3
Format : AC-3
Format/Info : Audio Coding 3
Codec ID : A_AC3
Duration : 1 h 28 min
Bit rate mode : Constant
Bit rate : 448 kb/s
Channel(s) : 6 channels
Channel positions : Front: L C R, Side: L R, LFE
Sampling rate : 48.0 kHz
Frame rate : 31.250 FPS (1536 SPF)
Bit depth : 16 bits
Compression mode : Lossy
Stream size : 284 MiB (8%)
Title : Ingles
Language : English
Service kind : Complete Main
Default : No
Forced : No

Text
ID : 4
Format : UTF-8
Codec ID : S_TEXT/UTF8
Codec ID/Info : UTF-8 Plain Text
Duration : 1 h 28 min
Bit rate : 42 b/s
Count of elements : 788
Stream size : 27.6 KiB (0%)
Title : Latino
Language : Spanish
Default : No
Forced : No

[/su_spoiler]


Descargas

Enlaces Públicos

Contraseña: micinehd.com

Links VIP

[su_spoiler title=»Links VIP» style=»fancy» icon=»caret-square»]

Inicia Sesión para ver enlaces directos!

[/su_spoiler]