La reunión del diablo Full 1080p BRrip Latino - Ingles

Devil
1 Star2 Stars3 Stars4 Stars5 Stars (1 votes, average: 5,00 out of 5)
Cargando…

1h 20m 2010 833 views

Información

Basada en una historia de M. Night Shyamalan. Un día cualquiera, cinco personas, que no se conocen, se quedan atrapadas en un ascensor de un gran edificio de oficinas. Muy pronto comienzan a suceder cosas extrañas y, poco a poco, se dan cuenta de que uno de ellos no es quien dice ser: es el mismísimo Satanás


Capturas


Datos Técnicos

Devil (2010)
BRRip 1080p MKV | Resolución: 1920×1080p | Codec: H.264 | Tamaño: 3.06 GB
Idiomas: Latino AC3 5.1 BD – Ingles AC3 5.1 BD
Subtitulos: Latino – Ingles | 5% Recuperación | Servidores: Mega – Uptobox – 1fichier

MediaInfo

Complete name : Devil (2010) Dual Full 1080p BRrip.mkv
Format : Matroska
Format version : Version 4 / Version 2
File size : 3.06 GiB
Duration : 1 h 20 min
Overall bit rate : 5 435 kb/s
Movie name : Devil (2010) Dual Full 1080p BRrip
Encoded date : UTC 2018-03-06 18:56:10 / UTC 2018-03-06T04:39:35Z
Writing application : mkvmerge v15.0.0 (‘Duel with the Devil’) 64-bit
Writing library : libebml v1.3.5 + libmatroska v1.4.5 / Lavf57.7.2

Video
ID : 1
Format : AVC
Format/Info : Advanced Video Codec
Format profile : Main@L5.1
Format settings : CABAC / 16 Ref Frames
Format settings, CABAC : Yes
Format settings, ReFrames : 16 frames
Codec ID : V_MPEG4/ISO/AVC
Duration : 1 h 20 min
Bit rate : 4 600 kb/s
Width : 1 920 pixels
Height : 1 080 pixels
Display aspect ratio : 16:9
Frame rate mode : Constant
Frame rate : 23.976 (24000/1001) FPS
Color space : YUV
Chroma subsampling : 4:2:0
Bit depth : 8 bits
Scan type : Progressive
Bits/(Pixel*Frame) : 0.093
Stream size : 2.53 GiB (83%)
Title : Devil (2010) Dual Full 1080p BRrip
Writing library : x264 core 148 r2708 86b7198
Encoding settings : cabac=1 / ref=16 / deblock=1:-1:-1 / analyse=0x1:0x131 / me=umh / subme=10 / psy=1 / psy_rd=1.00:0.15 / mixed_ref=1 / me_range=24 / chroma_me=1 / trellis=2 / 8x8dct=0 / cqm=0 / deadzone=21,11 / fast_pskip=1 / chroma_qp_offset=-3 / threads=6 / lookahead_threads=1 / sliced_threads=0 / nr=0 / decimate=1 / interlaced=0 / bluray_compat=0 / constrained_intra=0 / bframes=8 / b_pyramid=2 / b_adapt=2 / b_bias=0 / direct=3 / weightb=1 / open_gop=0 / weightp=2 / keyint=240 / keyint_min=24 / scenecut=40 / intra_refresh=0 / rc_lookahead=60 / rc=2pass / mbtree=1 / bitrate=4600 / ratetol=1.0 / qcomp=0.60 / qpmin=0 / qpmax=69 / qpstep=4 / cplxblur=20.0 / qblur=0.5 / ip_ratio=1.40 / aq=1:1.00
Default : Yes
Forced : No
Color range : Limited
Color primaries : BT.709
Transfer characteristics : BT.709
Matrix coefficients : BT.709
Statistics Tags Issue : mkvmerge v15.0.0 (‘Duel with the Devil’) 64-bit 2018-03-06 18:56:10 / mkvmerge v15.0.0 (‘Duel with the Devil’) 64-bit 2018-03-06 18:56:10 / UTC 2018-03-06T04:39:35Z
FromStats_BitRate : 4600556
FromStats_Duration : 01:20:28.657000000
FromStats_FrameCount : 115772
FromStats_StreamSize : 2776813455

Audio #1
ID : 2
Format : AC-3
Format/Info : Audio Coding 3
Codec ID : A_AC3
Duration : 1 h 20 min
Bit rate mode : Constant
Bit rate : 384 kb/s
Channel(s) : 6 channels
Channel positions : Front: L C R, Side: L R, LFE
Sampling rate : 48.0 kHz
Frame rate : 31.250 FPS (1536 SPF)
Bit depth : 16 bits
Compression mode : Lossy
Delay relative to video : 1 s 100 ms
Stream size : 221 MiB (7%)
Title : Latino
Language : Spanish
Service kind : Complete Main
Default : Yes
Forced : No
Statistics Tags Issue : mkvmerge v15.0.0 (‘Duel with the Devil’) 64-bit 2018-03-06 18:56:10 / mkvmerge v15.0.0 (‘Duel with the Devil’) 64-bit 2018-03-06 18:56:10 / UTC 2018-03-06T04:39:35Z
FromStats_BitRate : 384000
FromStats_Duration : 01:20:27.616000000
FromStats_FrameCount : 150863
FromStats_StreamSize : 231725568

Audio #2
ID : 3
Format : AC-3
Format/Info : Audio Coding 3
Codec ID : A_AC3
Duration : 1 h 20 min
Bit rate mode : Constant
Bit rate : 448 kb/s
Channel(s) : 6 channels
Channel positions : Front: L C R, Side: L R, LFE
Sampling rate : 48.0 kHz
Frame rate : 31.250 FPS (1536 SPF)
Bit depth : 16 bits
Compression mode : Lossy
Stream size : 258 MiB (8%)
Language : English
Service kind : Complete Main
Default : No
Forced : No
Statistics Tags Issue : mkvmerge v15.0.0 (‘Duel with the Devil’) 64-bit 2018-03-06 18:56:10 / mkvmerge v15.0.0 (‘Duel with the Devil’) 64-bit 2018-03-06 18:56:10 / UTC 2018-03-06T04:39:35Z
FromStats_BitRate : 448000
FromStats_Duration : 01:20:28.672000000
FromStats_FrameCount : 150896
FromStats_StreamSize : 270405632

Text #1
ID : 4
Format : UTF-8
Codec ID : S_TEXT/UTF8
Codec ID/Info : UTF-8 Plain Text
Language : Spanish
Default : Yes
Forced : No
Statistics Tags Issue : mkvmerge v15.0.0 (‘Duel with the Devil’) 64-bit 2018-03-06 18:56:10 / mkvmerge v15.0.0 (‘Duel with the Devil’) 64-bit 2018-03-06 18:56:10 / UTC 2018-03-06T04:39:35Z
FromStats_BitRate : 54
FromStats_Duration : 01:14:22.946000000
FromStats_FrameCount : 920
FromStats_StreamSize : 30271

Text #2
ID : 5
Format : UTF-8
Codec ID : S_TEXT/UTF8
Codec ID/Info : UTF-8 Plain Text
Language : English
Default : No
Forced : No
Statistics Tags Issue : mkvmerge v15.0.0 (‘Duel with the Devil’) 64-bit 2018-03-06 18:56:10 / mkvmerge v15.0.0 (‘Duel with the Devil’) 64-bit 2018-03-06 18:56:10 / UTC 2018-03-06T04:39:35Z
FromStats_BitRate : 58
FromStats_Duration : 01:14:08.073000000
FromStats_FrameCount : 1022
FromStats_StreamSize : 32544

Menu
00:00:00.000 : :Chapter 1
00:04:10.751 : :Chapter 2
00:07:00.629 : :Chapter 3
00:10:07.524 : :Chapter 4
00:14:37.585 : :Chapter 5
00:18:17.388 : :Chapter 6
00:21:09.226 : :Chapter 7
00:25:28.610 : :Chapter 8
00:30:11.184 : :Chapter 9
00:34:42.706 : :Chapter 10
00:37:10.437 : :Chapter 11
00:41:31.489 : :Chapter 12
00:45:33.856 : :Chapter 13
00:49:19.832 : :Chapter 14
00:53:40.134 : :Chapter 15
00:57:36.912 : :Chapter 16
01:02:01.343 : :Chapter 17
01:06:31.946 : :Chapter 18
01:13:40.833 : :Chapter 19
01:15:47.710 : :Chapter 20


Descargas

Enlaces Públicos

Contraseña: micinehd.com

Links VIP

Links VIP

Inicia Sesión para ver enlaces directos!