Información

Gran Bretaña, Segunda Guerra Mundial. Pocos días después de convertirse en Primer Ministro, Winston Churchill (Gary Oldman), debe tomar una difícil decisión. En pleno avance de las tropas nazis por toda Europa Occidental, cuando la amenaza de invasión es inminente, Churchill tendrá que elegir entre luchar contra Hitler o aceptar el acuerdo de paz que este le ofrece pactar. A pesar de la presión a la que estuvo sometido, ya que su propio partido llegó a conspirar en su contra y el Rey Jorge VI (Ben Mendelsohn) era muy escéptico al respecto, la firme negativa de Churchill a aceptar la derrota, la rendición o un acuerdo de paz, sirvieron como inspiración a la resistencia británica. Durante los difíciles primeros años de la guerra, cuando el Reino Unido se quedó solo en su firme oposición contra la Alemania nazi, Churchill deberá soportar su hora más oscura, reunir a una nación, luchar por los ideales y la libertad, y tratar de cambiar el curso de la historia mundial.


Capturas


Datos Técnicos

Darkest Hour (2017)
BRRip 1080p MKV | Resolución: 1920×1040p | Codec: H.264 | Tamaño: 4.3 GB
Idiomas: Latino AC3 5.1 BD – Ingles AC3 5.1 BD
Subtitulos: Latino – Forzados – Ingles | 5% Recuperación 

[su_spoiler title=»MediaInfo» style=»fancy» icon=»caret-square»]

General
Complete name : Darkest Hour (2017) Dual Full 1080p HD.mkv
Format : Matroska
Format version : Version 4 / Version 2
File size : 4.33 GiB
Duration : 2 h 4 min
Overall bit rate : 4 961 kb/s
Movie name : Darkest Hour (2017) Dual Full 1080p HD
Encoded date : UTC 2018-02-17 00:34:58 / UTC 2018-02-14T06:20:27Z
Writing application : mkvmerge v15.0.0 (‘Duel with the Devil’) 64-bit
Writing library : libebml v1.3.5 + libmatroska v1.4.5 / Lavf57.7.2

Video
ID : 1
Format : AVC
Format/Info : Advanced Video Codec
Format profile : High@L4.1
Format settings : CABAC / 4 Ref Frames
Format settings, CABAC : Yes
Format settings, ReFrames : 4 frames
Codec ID : V_MPEG4/ISO/AVC
Duration : 2 h 4 min
Bit rate : 3 900 kb/s
Width : 1 920 pixels
Height : 1 040 pixels
Display aspect ratio : 1.85:1
Frame rate mode : Constant
Frame rate : 23.976 (24000/1001) FPS
Color space : YUV
Chroma subsampling : 4:2:0
Bit depth : 8 bits
Scan type : Progressive
Bits/(Pixel*Frame) : 0.081
Stream size : 3.29 GiB (76%)
Title : Darkest Hour (2017) Dual Full 1080p HD
Writing library : x264 core 148 r2708 86b7198
Encoding settings : cabac=1 / ref=3 / deblock=1:0:0 / analyse=0x3:0x113 / me=hex / subme=7 / psy=1 / psy_rd=1.00:0.00 / mixed_ref=1 / me_range=16 / chroma_me=1 / trellis=1 / 8x8dct=1 / cqm=0 / deadzone=21,11 / fast_pskip=1 / chroma_qp_offset=-2 / threads=32 / lookahead_threads=5 / sliced_threads=0 / nr=0 / decimate=1 / interlaced=0 / bluray_compat=0 / constrained_intra=0 / bframes=3 / b_pyramid=2 / b_adapt=1 / b_bias=0 / direct=1 / weightb=1 / open_gop=0 / weightp=2 / keyint=240 / keyint_min=24 / scenecut=40 / intra_refresh=0 / rc_lookahead=40 / rc=abr / mbtree=1 / bitrate=3900 / ratetol=1.0 / qcomp=0.60 / qpmin=0 / qpmax=69 / qpstep=4 / vbv_maxrate=62500 / vbv_bufsize=78125 / nal_hrd=none / filler=0 / ip_ratio=1.40 / aq=1:1.00
Default : Yes
Forced : No
Color range : Limited
Color primaries : BT.709
Transfer characteristics : BT.709
Matrix coefficients : BT.709
Statistics Tags Issue : mkvmerge v15.0.0 (‘Duel with the Devil’) 64-bit 2018-02-17 00:34:58 / mkvmerge v15.0.0 (‘Duel with the Devil’) 64-bit 2018-02-17 00:34:58 / UTC 2018-02-14T06:20:27Z
FromStats_BitRate : 3870650
FromStats_Duration : 02:04:54.487000000
FromStats_FrameCount : 179688
FromStats_StreamSize : 3626067749

Audio #1
ID : 2
Format : AC-3
Format/Info : Audio Coding 3
Codec ID : A_AC3
Duration : 2 h 4 min
Bit rate mode : Constant
Bit rate : 448 kb/s
Channel(s) : 6 channels
Channel positions : Front: L C R, Side: L R, LFE
Sampling rate : 48.0 kHz
Frame rate : 31.250 FPS (1536 SPF)
Bit depth : 16 bits
Compression mode : Lossy
Stream size : 400 MiB (9%)
Title : Latino
Language : Spanish
Service kind : Complete Main
Default : Yes
Forced : No
Statistics Tags Issue : mkvmerge v15.0.0 (‘Duel with the Devil’) 64-bit 2018-02-17 00:34:58 / mkvmerge v15.0.0 (‘Duel with the Devil’) 64-bit 2018-02-17 00:34:58 / UTC 2018-02-14T06:20:27Z
FromStats_BitRate : 448000
FromStats_Duration : 02:04:54.496000000
FromStats_FrameCount : 234203
FromStats_StreamSize : 419691776

Audio #2
ID : 3
Format : AC-3
Format/Info : Audio Coding 3
Codec ID : A_AC3
Duration : 2 h 4 min
Bit rate mode : Constant
Bit rate : 640 kb/s
Channel(s) : 6 channels
Channel positions : Front: L C R, Side: L R, LFE
Sampling rate : 48.0 kHz
Frame rate : 31.250 FPS (1536 SPF)
Bit depth : 16 bits
Compression mode : Lossy
Stream size : 572 MiB (13%)
Title : Ingles
Language : English
Service kind : Complete Main
Default : No
Forced : No
Statistics Tags Issue : mkvmerge v15.0.0 (‘Duel with the Devil’) 64-bit 2018-02-17 00:34:58 / mkvmerge v15.0.0 (‘Duel with the Devil’) 64-bit 2018-02-17 00:34:58 / UTC 2018-02-14T06:20:27Z
FromStats_BitRate : 640000
FromStats_Duration : 02:04:54.496000000
FromStats_FrameCount : 234203
FromStats_StreamSize : 599559680

Text #1
ID : 4
Format : UTF-8
Codec ID : S_TEXT/UTF8
Codec ID/Info : UTF-8 Plain Text
Title : Forzados
Language : Spanish
Default : Yes
Forced : No
Statistics Tags Issue : mkvmerge v15.0.0 (‘Duel with the Devil’) 64-bit 2018-02-17 00:34:58 / mkvmerge v15.0.0 (‘Duel with the Devil’) 64-bit 2018-02-17 00:34:58 / UTC 2018-02-14T06:20:27Z
FromStats_BitRate : 1
FromStats_Duration : 01:58:37.326000000
FromStats_FrameCount : 42
FromStats_StreamSize : 1186

Text #2
ID : 5
Format : UTF-8
Codec ID : S_TEXT/UTF8
Codec ID/Info : UTF-8 Plain Text
Title : Latino
Language : Spanish
Default : No
Forced : No
Statistics Tags Issue : mkvmerge v15.0.0 (‘Duel with the Devil’) 64-bit 2018-02-17 00:34:58 / mkvmerge v15.0.0 (‘Duel with the Devil’) 64-bit 2018-02-17 00:34:58 / UTC 2018-02-14T06:20:27Z
FromStats_BitRate : 66
FromStats_Duration : 01:58:37.328000000
FromStats_FrameCount : 1814
FromStats_StreamSize : 59100

[/su_spoiler]


Descargas

1Fichier UptoBox Mega

Contraseña: micinehd.com

Links VIP

[su_spoiler title=»Links VIP» style=»fancy» icon=»caret-square»]

Inicia Sesión para ver enlaces directos!

[/su_spoiler]