¿Que le paso a Lunes? Full 1080p BRrip Latino - Ingles

What Happened to Monday
1 Star2 Stars3 Stars4 Stars5 Stars (No Ratings Yet)
Cargando…

2h 3m 2017 273 views

Información

La película nos llevará hasta un futuro donde las familias son obligadas a tener tan solo un único hijo debido a la superpoblación. Un grupo de siete hermanas gemelas idénticas deberá luchar contra el gobierno y contra ellas mismas cuando una de ellas desaparezca.


Capturas


Datos Técnicos

What Happened to Monday (2017)
BRRip 1080p MKV | Resolución: 1920×1080p | Codec: H.264 | Tamaño: 4.2 GB
Idiomas: Latino AC3 5.1 NF – Ingles AC3 5.1 BD
Subtitulos: Latino – Ingles | 5% Recuperación | Servidores: Mega – Uptobox – 1fichier

MediaInfo

Complete name : What Happened to Monday (2017) Dual Full 1080p BRrip.mkv
Format : Matroska
Format version : Version 4 / Version 2
File size : 4.21 GiB
Duration : 2 h 3 min
Overall bit rate : 4 876 kb/s
Movie name : What Happened to Monday (2017) Dual Full 1080p BRrip
Encoded date : UTC 2018-03-05 01:26:45
Writing application : mkvmerge v15.0.0 (‘Duel with the Devil’) 64-bit
Writing library : libebml v1.3.5 + libmatroska v1.4.5

Video
ID : 1
Format : AVC
Format/Info : Advanced Video Codec
Format profile : High@L4.1
Format settings : CABAC / 2 Ref Frames
Format settings, CABAC : Yes
Format settings, ReFrames : 2 frames
Codec ID : V_MPEG4/ISO/AVC
Duration : 2 h 3 min
Bit rate : 4 050 kb/s
Width : 1 920 pixels
Height : 1 080 pixels
Display aspect ratio : 16:9
Frame rate mode : Constant
Frame rate : 24.000 FPS
Color space : YUV
Chroma subsampling : 4:2:0
Bit depth : 8 bits
Scan type : Progressive
Bits/(Pixel*Frame) : 0.081
Stream size : 3.49 GiB (83%)
Title : What Happened to Monday (2017) Dual Full 1080p BRrip
Writing library : x264 core 142

Default : Yes
Forced : No
Color range : Limited
Color primaries : BT.709
Transfer characteristics : BT.709
Matrix coefficients : BT.709

Audio #1
ID : 2
Format : AC-3
Format/Info : Audio Coding 3
Codec ID : A_AC3
Duration : 2 h 3 min
Bit rate mode : Constant
Bit rate : 384 kb/s
Channel(s) : 6 channels
Channel positions : Front: L C R, Side: L R, LFE
Sampling rate : 48.0 kHz
Frame rate : 31.250 FPS (1536 SPF)
Bit depth : 16 bits
Compression mode : Lossy
Stream size : 339 MiB (8%)
Title : Latino
Language : Spanish
Service kind : Complete Main
Default : Yes
Forced : No

Audio #2
ID : 3
Format : AC-3
Format/Info : Audio Coding 3
Codec ID : A_AC3
Duration : 2 h 3 min
Bit rate mode : Constant
Bit rate : 448 kb/s
Channel(s) : 6 channels
Channel positions : Front: L C R, Side: L R, LFE
Sampling rate : 48.0 kHz
Frame rate : 31.250 FPS (1536 SPF)
Bit depth : 16 bits
Compression mode : Lossy
Stream size : 395 MiB (9%)
Title : Ingles
Language : English
Service kind : Complete Main
Default : No
Forced : No

Text #1
ID : 4
Format : UTF-8
Codec ID : S_TEXT/UTF8
Codec ID/Info : UTF-8 Plain Text
Duration : 1 h 56 min
Bit rate : 32 b/s
Count of elements : 958
Stream size : 27.8 KiB (0%)
Title : Latino
Language : Spanish
Default : Yes
Forced : No

Text #2
ID : 5
Format : UTF-8
Codec ID : S_TEXT/UTF8
Codec ID/Info : UTF-8 Plain Text
Duration : 1 h 57 min
Bit rate : 40 b/s
Count of elements : 1233
Stream size : 34.8 KiB (0%)
Title : Ingles
Language : English
Default : No
Forced : No


Descargas

Enlaces Públicos

Contraseña: micinehd.com

Links VIP

Links VIP

Inicia Sesión para ver enlaces directos!