R.I.P.D. Departamento de policía mortal Full 1080p BRrip Latino - ingles

R.I.P.D.
1 Star2 Stars3 Stars4 Stars5 Stars (No Ratings Yet)
Cargando…

1h 36m 2013 270 views

Información

Aunque Nick es un policía que acaba de morir asesinado, es reclutado para trabajar con Roy, un agente que murió hace cientos de años. Ambos forman parte del “Rest In Peace Department”, que se encarga de perseguir a los demonios que habitan en el mundo de los vivos y de mandarlos al infierno. A Nick le cuesta hacerse a la idea de su condición de muerto, y no acepta estar alejado de su esposa, a la que envía reiteradas señales para que perciba su presencia. Al menos, gracias a su empleo post mortem, el joven agente podrá trabajar en el caso de su propio asesinato.


Capturas


Datos Técnicos

R.I.P.D. (2013)
BRRip 1080p MKV | Resolución: 1920×1080p | Codec: H.264 | Tamaño: 4.1 GB
Idiomas: Latino AC3 5.1 BD – Ingles DTS 5.1 BD
Subtitulos: Latino – Forzados – Ingles | 5% Recuperación | Servidores: Mega – Uptobox – 1fichier

MediaInfo

General
Complete name : R.I.P.D. (2013) Dual Full 1080p BRrip.mkv
Format : Matroska
Format version : Version 4 / Version 2
File size : 4.12 GiB
Duration : 1 h 35 min
Overall bit rate : 6 142 kb/s
Movie name : R.I.P.D. (2013) Dual Full 1080p BRrip
Encoded date : UTC 2018-03-11 08:28:20
Writing application : mkvmerge v15.0.0 (‘Duel with the Devil’) 64-bit
Writing library : libebml v1.3.5 + libmatroska v1.4.5

Video
ID : 1
Format : AVC
Format/Info : Advanced Video Codec
Format profile : High@L4.1
Format settings : CABAC / 4 Ref Frames
Format settings, CABAC : Yes
Format settings, ReFrames : 4 frames
Codec ID : V_MPEG4/ISO/AVC
Duration : 1 h 35 min
Bit rate : 3 841 kb/s
Width : 1 920 pixels
Height : 1 080 pixels
Display aspect ratio : 16:9
Frame rate mode : Variable
Frame rate : 23.976 FPS
Color space : YUV
Chroma subsampling : 4:2:0
Bit depth : 8 bits
Scan type : Progressive
Bits/(Pixel*Frame) : 0.077
Stream size : 2.57 GiB (63%)
Title : R.I.P.D. (2013) Dual Full 1080p BRrip
Writing library : x264 core 142 r2479 dd79a61
Default : Yes
Forced : No
Color range : Limited
Color primaries : BT.709
Transfer characteristics : BT.709
Matrix coefficients : BT.709

Audio #1
ID : 2
Format : DTS
Format/Info : Digital Theater Systems
Codec ID : A_DTS
Duration : 1 h 35 min
Bit rate mode : Constant
Bit rate : 768 kb/s
Channel(s) : 6 channels
Channel positions : Front: L C R, Side: L R, LFE
Sampling rate : 48.0 kHz
Frame rate : 93.750 FPS (512 SPF)
Bit depth : 24 bits
Compression mode : Lossy
Stream size : 527 MiB (13%)
Title : Latino
Language : Spanish
Default : Yes
Forced : No

Audio #2
ID : 3
Format : DTS
Format/Info : Digital Theater Systems
Codec ID : A_DTS
Duration : 1 h 35 min
Bit rate mode : Constant
Bit rate : 1 509 kb/s
Channel(s) : 6 channels
Channel positions : Front: L C R, Side: L R, LFE
Sampling rate : 48.0 kHz
Frame rate : 93.750 FPS (512 SPF)
Bit depth : 24 bits
Compression mode : Lossy
Delay relative to video : -100 ms
Stream size : 1.01 GiB (25%)
Title : Ingles
Language : English
Default : No
Forced : No

Text #1
ID : 4
Format : UTF-8
Codec ID : S_TEXT/UTF8
Codec ID/Info : UTF-8 Plain Text
Duration : 18 min 13 s
Bit rate : 0 b/s
Count of elements : 5
Stream size : 128 Bytes (0%)
Title : Forzados
Language : Spanish
Default : Yes
Forced : No

Text #2
ID : 5
Format : UTF-8
Codec ID : S_TEXT/UTF8
Codec ID/Info : UTF-8 Plain Text
Duration : 1 h 26 min
Bit rate : 53 b/s
Count of elements : 1176
Stream size : 33.8 KiB (0%)
Title : Latino
Language : Spanish
Default : No
Forced : No

Text #3
ID : 6
Format : PGS
Muxing mode : zlib
Codec ID : S_HDMV/PGS
Codec ID/Info : Picture based subtitle format used on BDs/HD-DVDs
Duration : 1 h 26 min
Bit rate : 33.2 kb/s
Count of elements : 2354
Stream size : 20.6 MiB (0%)
Title : Latino [PGS]
Language : Spanish
Default : No
Forced : No

Text #4
ID : 7
Format : PGS
Muxing mode : zlib
Codec ID : S_HDMV/PGS
Codec ID/Info : Picture based subtitle format used on BDs/HD-DVDs
Duration : 1 h 26 min
Bit rate : 42.1 kb/s
Count of elements : 2778
Stream size : 26.1 MiB (1%)
Title : Ingles [PGS]
Language : English
Default : No
Forced : No


Descargas

Enlaces Públicos

Contraseña: micinehd.com

Links VIP

Links VIP

Inicia Sesión para ver enlaces directos!