Información

Peter Parker (Tom Holland) comienza a experimentar su recién descubierta identidad como el superhéroe Spider-Man. Después de la experiencia vivida con los Vengadores, Peter regresa a casa, donde vive con su tía (Marisa Tomei). Bajo la atenta mirada de su mentor Tony Stark (Robert Downey Jr.), Peter intenta mantener una vida normal como cualquier joven de su edad, pero interrumpe en su rutina diaria el nuevo villano Vulture (Michael Keaton) y, con él, lo más importante de la vida de Peter comenzará a verse amenazado.


Capturas


Datos Técnicos

Spider-man Homecoming (2017)
BRRip 720p MKV | Resolución: 1280×720p | Codec: H.264 H.265 | Tamaño: 1.99 GB
Idiomas: Latino AC3 5.1 BD – Ingles AC3 5.1 BD
Subtitulos: Latino – Ingles | 5% Recuperación | Servidores: Mega – Uptobox – 1fichier

[su_spoiler title=»MediaInfo» style=»fancy» icon=»caret-square»]

Complete name : Spider-man Homecoming (2017) Dual 720p Brrip.mkv
Format : Matroska
Format version : Version 4 / Version 2
File size : 1.99 GiB
Duration : 2 h 13 min
Overall bit rate : 2 134 kb/s
Movie name : Spider-man Homecoming (2017) Dual 720p Brrip
Encoded date : UTC 2018-03-14 06:00:24 / UTC 2018-03-14T05:28:19Z
Writing application : mkvmerge v15.0.0 (‘Duel with the Devil’) 64-bit
Writing library : libebml v1.3.5 + libmatroska v1.4.5 / Lavf57.7.2

Video
ID : 1
Format : AVC
Format/Info : Advanced Video Codec
Format profile : Main@L3.1
Format settings : CABAC / 4 Ref Frames
Format settings, CABAC : Yes
Format settings, ReFrames : 4 frames
Codec ID : V_MPEG4/ISO/AVC
Duration : 2 h 13 min
Bit rate : 1 500 kb/s
Width : 1 280 pixels
Height : 720 pixels
Display aspect ratio : 16:9
Frame rate mode : Constant
Frame rate : 23.976 (24000/1001) FPS
Color space : YUV
Chroma subsampling : 4:2:0
Bit depth : 8 bits
Scan type : Progressive
Bits/(Pixel*Frame) : 0.068
Stream size : 1.35 GiB (68%)
Title : Spider-man Homecoming (2017) Dual 720p Brrip
Writing library : x264 core 148 r2708 86b719
Default : Yes
Forced : No
Color range : Limited
Color primaries : BT.709
Transfer characteristics : BT.709
Matrix coefficients : BT.709
Statistics Tags Issue : mkvmerge v15.0.0 (‘Duel with the Devil’) 64-bit 2018-03-14 06:00:24 / mkvmerge v15.0.0 (‘Duel with the Devil’) 64-bit 2018-03-14 06:00:24 / UTC 2018-03-14T05:28:19Z
FromStats_BitRate : 1473266
FromStats_Duration : 02:13:27.959000000
FromStats_FrameCount : 191999
FromStats_StreamSize : 1474732410

Audio #1
ID : 2
Format : AC-3
Format/Info : Audio Coding 3
Codec ID : A_AC3
Duration : 2 h 13 min
Bit rate mode : Constant
Bit rate : 320 kb/s
Channel(s) : 6 channels
Channel positions : Front: L C R, Side: L R, LFE
Sampling rate : 48.0 kHz
Frame rate : 31.250 FPS (1536 SPF)
Bit depth : 16 bits
Compression mode : Lossy
Delay relative to video : 19 ms
Stream size : 305 MiB (15%)
Title : Latino
Language : Spanish
Service kind : Complete Main
Default : Yes
Forced : No
Statistics Tags Issue : mkvmerge v15.0.0 (‘Duel with the Devil’) 64-bit 2018-03-14 06:00:24 / mkvmerge v15.0.0 (‘Duel with the Devil’) 64-bit 2018-03-14 06:00:24 / UTC 2018-03-14T05:28:19Z
FromStats_BitRate : 320000
FromStats_Duration : 02:13:27.968000000
FromStats_FrameCount : 250249
FromStats_StreamSize : 320318720

Audio #2
ID : 3
Format : AC-3
Format/Info : Audio Coding 3
Codec ID : A_AC3
Duration : 2 h 13 min
Bit rate mode : Constant
Bit rate : 320 kb/s
Channel(s) : 6 channels
Channel positions : Front: L C R, Side: L R, LFE
Sampling rate : 48.0 kHz
Frame rate : 31.250 FPS (1536 SPF)
Bit depth : 16 bits
Compression mode : Lossy
Delay relative to video : -5 ms
Stream size : 305 MiB (15%)
Title : Ingles
Language : English
Service kind : Complete Main
Default : No
Forced : No
Statistics Tags Issue : mkvmerge v15.0.0 (‘Duel with the Devil’) 64-bit 2018-03-14 06:00:24 / mkvmerge v15.0.0 (‘Duel with the Devil’) 64-bit 2018-03-14 06:00:24 / UTC 2018-03-14T05:28:19Z
FromStats_BitRate : 320000
FromStats_Duration : 02:13:27.968000000
FromStats_FrameCount : 250249
FromStats_StreamSize : 320318720

Text
ID : 4
Format : PGS
Muxing mode : zlib
Codec ID : S_HDMV/PGS
Codec ID/Info : Picture based subtitle format used on BDs/HD-DVDs
Title : Latino
Language : Spanish
Default : No
Forced : No
Statistics Tags Issue : mkvmerge v15.0.0 (‘Duel with the Devil’) 64-bit 2018-03-14 06:00:24 / mkvmerge v15.0.0 (‘Duel with the Devil’) 64-bit 2018-03-14 06:00:24 / UTC 2018-03-14T05:28:19Z
FromStats_BitRate : 34131
FromStats_Duration : 02:12:46.041000000
FromStats_FrameCount : 3355
FromStats_StreamSize : 33987057

Menu
00:00:00.000 : :Chapter 1
00:00:48.757 : :Chapter 2
00:01:27.713 : :Chapter 3
00:02:02.956 : :Chapter 4
00:02:26.480 : :Chapter 5
00:05:34.626 : :Chapter 6
00:06:03.196 : :Chapter 7
00:06:29.306 : :Chapter 8
00:08:57.746 : :Chapter 9
00:10:56.990 : :Chapter 10
00:12:25.411 : :Chapter 11
00:13:48.661 : :Chapter 12
00:17:47.567 : :Chapter 13
00:20:50.708 : :Chapter 14
00:21:21.739 : :Chapter 15
00:22:00.611 : :Chapter 16
00:24:23.170 : :Chapter 17
00:25:51.592 : :Chapter 18
00:26:44.144 : :Chapter 19
00:28:12.274 : :Chapter 20
00:29:11.375 : :Chapter 21
00:32:24.609 : :Chapter 22
00:33:02.481 : :Chapter 23
00:34:13.969 : :Chapter 24
00:34:35.115 : :Chapter 25
00:37:10.437 : :Chapter 26
00:38:13.416 : :Chapter 27
00:40:52.784 : :Chapter 28
00:41:51.968 : :Chapter 29
00:45:02.283 : :Chapter 30
00:46:25.241 : :Chapter 31
00:48:24.485 : :Chapter 32
00:51:06.313 : :Chapter 33
00:52:41.116 : :Chapter 34
00:55:29.493 : :Chapter 35
00:58:41.143 : :Chapter 36
00:59:33.403 : :Chapter 37
01:00:01.848 : :Chapter 38
01:00:14.820 : :Chapter 39
01:00:29.459 : :Chapter 40
01:00:55.861 : :Chapter 41
01:01:19.217 : :Chapter 42
01:03:24.801 : :Chapter 43
01:05:07.654 : :Chapter 44
01:06:21.728 : :Chapter 45
01:06:46.503 : :Chapter 46
01:07:22.664 : :Chapter 47
01:10:11.040 : :Chapter 48
01:11:20.777 : :Chapter 49
01:12:53.202 : :Chapter 50
01:14:51.946 : :Chapter 51
01:15:45.666 : :Chapter 52
01:16:56.070 : :Chapter 53
01:18:41.550 : :Chapter 54
01:19:12.081 : :Chapter 55
01:20:21.483 : :Chapter 56
01:21:00.022 : :Chapter 57
01:23:33.133 : :Chapter 58
01:27:20.819 : :Chapter 59
01:28:49.533 : :Chapter 60
01:32:37.719 : :Chapter 61
01:33:23.014 : :Chapter 62
01:33:59.300 : :Chapter 63
01:35:20.215 : :Chapter 64
01:36:48.636 : :Chapter 65
01:38:45.545 : :Chapter 66
01:40:47.959 : :Chapter 67
01:42:07.538 : :Chapter 68
01:43:39.130 : :Chapter 69
01:45:06.967 : :Chapter 70
01:46:23.377 : :Chapter 71
01:47:18.474 : :Chapter 72
01:48:06.939 : :Chapter 73
01:49:06.749 : :Chapter 74
01:50:14.441 : :Chapter 75
01:52:24.029 : :Chapter 76
01:54:00.876 : :Chapter 77
01:56:01.705 : :Chapter 78
01:58:03.785 : :Chapter 79
01:59:28.662 : :Chapter 80
02:00:13.873 : :Chapter 81
02:01:11.473 : :Chapter 82
02:02:21.167 : :Chapter 83

[/su_spoiler]


Descargas

Enlaces Públicos

Contraseña: micinehd.com