Star Wars Episodio IV Full 1080p BRrip Latino - Ingles

Star Wars
Imagen Star Wars Episodio IV Full 1080p BRrip Latino – Ingles
1 Star2 Stars3 Stars4 Stars5 Stars (1 votes, average: 4,00 out of 5)
Cargando…

2h 1m 1977 138 lecturas

Información

La princesa Leia, líder del movimiento rebelde que desea reinstaurar la República en la galaxia en los tiempos ominosos del Imperio, es capturada por las malévolas Fuerzas Imperiales, capitaneadas por el implacable Darth Vader, el sirviente más fiel del emperador. El intrépido Luke Skywalker, ayudado por Han Solo, capitán de la nave espacial «El Halcón Milenario», y los androides, R2D2 y C3PO, serán los encargados de luchar contra el enemigo y rescatar a la princesa para volver a instaurar la justicia en el seno de la Galaxia.


Capturas


Datos Técnicos

Star Wars Episode IV A New Hope (1977)
BRRip 1080p MKV | Resolución: 1920×1080p | Codec: H.264 | Tamaño: 3 GB
Idiomas: Latino AC3 5.1 BD – Ingles AC3 5.1 BD
Subtitulos: Latino – Forzados – Ingles | 5% Recuperación | Servidores: Mega – Uptobox – 1fichier

[su_spoiler title=»MediaInfo» style=»fancy» icon=»caret-square»]

Complete name : Star Wars Episode IV A New Hope (1977) Dual Full 1080p BRrip.mkv
Format : Matroska
Format version : Version 4 / Version 2
File size : 3.09 GiB
Duration : 2 h 4 min
Overall bit rate : 3 541 kb/s
Movie name : Star Wars Episode IV A New Hope (1977) Dual Full 1080p HD
Encoded date : UTC 2017-11-12 02:08:16
Writing application : mkvmerge v15.0.0 (‘Duel with the Devil’) 64-bit
Writing library : libebml v1.3.5 + libmatroska v1.4.5

Video
ID : 1
Format : AVC
Format/Info : Advanced Video Codec
Format profile : High@L4.1
Format settings : CABAC / 3 Ref Frames
Format settings, CABAC : Yes
Format settings, ReFrames : 3 frames
Codec ID : V_MPEG4/ISO/AVC
Duration : 2 h 4 min
Bit rate : 3 000 kb/s
Width : 1 920 pixels
Height : 1 080 pixels
Display aspect ratio : 16:9
Frame rate mode : Constant
Frame rate : 23.976 (24000/1001) FPS
Color space : YUV
Chroma subsampling : 4:2:0
Bit depth : 8 bits
Scan type : Progressive
Bits/(Pixel*Frame) : 0.060
Stream size : 2.61 GiB (85%)
Title : Star Wars Episode IV A New Hope (1977) Dual Full 1080p HD
Writing library : x264 core 148
Default : Yes
Forced : No
Color range : Limited
Color primaries : BT.709
Transfer characteristics : BT.709
Matrix coefficients : BT.709

Audio #1
ID : 2
Format : AC-3
Format/Info : Audio Coding 3
Codec ID : A_AC3
Duration : 2 h 4 min
Bit rate mode : Constant
Bit rate : 256 kb/s
Channel(s) : 6 channels
Channel positions : Front: L C R, Side: L R, LFE
Sampling rate : 44.1 kHz
Frame rate : 28.711 FPS (1536 SPF)
Bit depth : 16 bits
Compression mode : Lossy
Stream size : 228 MiB (7%)
Title : Latino
Language : Spanish
Service kind : Complete Main
Default : Yes
Forced : No

Audio #2
ID : 3
Format : AC-3
Format/Info : Audio Coding 3
Codec ID : A_AC3
Duration : 2 h 4 min
Bit rate mode : Constant
Bit rate : 256 kb/s
Channel(s) : 6 channels
Channel positions : Front: L C R, Side: L R, LFE
Sampling rate : 48.0 kHz
Frame rate : 31.250 FPS (1536 SPF)
Bit depth : 16 bits
Compression mode : Lossy
Stream size : 228 MiB (7%)
Title : Ingles
Language : English
Service kind : Complete Main
Default : No
Forced : No

Text #1
ID : 4
Format : UTF-8
Codec ID : S_TEXT/UTF8
Codec ID/Info : UTF-8 Plain Text
Duration : 4 min 8 s
Bit rate : 31 b/s
Count of elements : 30
Stream size : 992 Bytes (0%)
Title : Forzados
Language : Spanish
Default : Yes
Forced : No

Text #2
ID : 5
Format : UTF-8
Codec ID : S_TEXT/UTF8
Codec ID/Info : UTF-8 Plain Text
Duration : 1 h 58 min
Bit rate : 62 b/s
Count of elements : 1286
Stream size : 53.9 KiB (0%)
Title : Latino
Language : Spanish
Default : No
Forced : No

Text #3
ID : 6
Format : PGS
Muxing mode : zlib
Codec ID : S_HDMV/PGS
Codec ID/Info : Picture based subtitle format used on BDs/HD-DVDs
Duration : 4 min 8 s
Bit rate : 11.7 kb/s
Count of elements : 60
Stream size : 355 KiB (0%)
Title : Forzados PGS
Language : Spanish
Default : No
Forced : No

Text #4
ID : 7
Format : PGS
Muxing mode : zlib
Codec ID : S_HDMV/PGS
Codec ID/Info : Picture based subtitle format used on BDs/HD-DVDs
Duration : 1 h 58 min
Bit rate : 22.0 kb/s
Count of elements : 2572
Stream size : 18.6 MiB (1%)
Title : Latino PGS
Language : Spanish
Default : No
Forced : No

Text #5
ID : 8
Format : PGS
Muxing mode : zlib
Codec ID : S_HDMV/PGS
Codec ID/Info : Picture based subtitle format used on BDs/HD-DVDs
Duration : 2 h 1 min
Bit rate : 36.9 kb/s
Count of elements : 2542
Stream size : 32.1 MiB (1%)
Title : Ingles
Language : English
Default : No
Forced : No

Menu
00:00:00.000 : en:(01)00:00:00:000
00:00:21.021 : en:(02)00:00:21:021
00:01:53.404 : en:(03)00:01:53:404
00:04:52.792 : en:(04)00:04:52:792
00:07:28.281 : en:(05)00:07:28:281
00:08:54.867 : en:(06)00:08:54:867
00:11:21.389 : en:(07)00:11:21:389
00:15:40.230 : en:(08)00:15:40:230
00:19:40.178 : en:(09)00:19:40:178
00:23:33.203 : en:(10)00:23:33:203
00:25:32.614 : en:(11)00:25:32:614
00:27:45.497 : en:(12)00:27:45:497
00:29:12.709 : en:(13)00:29:12:709
00:32:34.077 : en:(14)00:32:34:077
00:34:53.007 : en:(15)00:34:53:007
00:36:54.211 : en:(16)00:36:54:211
00:39:05.634 : en:(17)00:39:05:634
00:41:42.291 : en:(18)00:41:42:291
00:42:31.548 : en:(19)00:42:31:548
00:44:51.730 : en:(20)00:44:51:730
00:47:52.619 : en:(21)00:47:52:619
00:49:57.994 : en:(22)00:49:57:994
00:51:13.695 : en:(23)00:51:13:695
00:52:40.740 : en:(24)00:52:40:740
00:54:12.332 : en:(25)00:54:12:332
00:56:59.916 : en:(26)00:56:59:916
00:59:14.175 : en:(27)00:59:14:175
01:03:10.828 : en:(28)01:03:10:828
01:06:16.472 : en:(29)01:06:16:472
01:08:21.972 : en:(30)01:08:21:972
01:12:32.389 : en:(31)01:12:32:389
01:14:12.656 : en:(32)01:14:12:656
01:17:13.712 : en:(33)01:17:13:712
01:19:09.327 : en:(34)01:19:09:327
01:21:29.384 : en:(35)01:21:29:384
01:25:00.220 : en:(36)01:25:00:220
01:27:02.091 : en:(37)01:27:02:091
01:29:56.182 : en:(38)01:29:56:182
01:33:48.456 : en:(39)01:33:48:456
01:36:39.877 : en:(40)01:36:39:877
01:38:06.755 : en:(41)01:38:06:755
01:39:37.513 : en:(42)01:39:37:513
01:41:24.995 : en:(43)01:41:24:995
01:42:37.401 : en:(44)01:42:37:401
01:45:02.629 : en:(45)01:45:02:629
01:49:42.784 : en:(46)01:49:42:784
01:55:18.911 : en:(47)01:55:18:911
01:57:47.393 : en:(48)01:57:47:393
01:58:28.518 : en:(49)01:58:28:518
02:00:14.498 : en:(50)02:00:14:498
02:04:44.476 : en:(51)02:04:44:476

[/su_spoiler]


Descargas

Enlaces Públicos

Contraseña: micinehd.com

Links VIP

[su_spoiler title=»Links VIP» style=»fancy» icon=»caret-square»]

Inicia Sesión para ver enlaces directos!

[/su_spoiler]