X-Men: Primera Generación Full 1080p BRrip Latino - Ingles

X-Men: First Class
1 Star2 Stars3 Stars4 Stars5 Stars (1 votes, average: 5,00 out of 5)
Cargando…

2h 11m 2011 970 views

Información

Comienzo de la saga de los X-Men, esta es una historia secreta que alude a conocidos acontecimientos mundiales. Antes de que los mutantes se mostraran al mundo, y antes de que cambiaran sus nombres por los de Profesor X y Magneto, Charles Xavier (James McAvoy) y Erik Lehnsherr (Michael Fassbender) eran dos jóvenes que descubrían sus poderes. No había animadversión alguna entre ellos, sino que les unía una sincera amistad y la decisión de acabar con el trabajar juntos y entrenar a un grupo de jóvenes mutantes para evitar el Armagedón nuclear. Su enemigo común: el malvado Sebastian Shaw (Kevin Bacon), un humano con poderes con el que Erik tiene una cuenta pendiente.


Capturas


Datos Técnicos

X-Men First Class (2011)
BRRip 1080p MKV | Resolución: 1920×1080p | Codec: H.264 | Tamaño: 3.6 GB
Idiomas: Latino AC3 5.1 BD – Ingles AC3 5.1 BD
Subtitulos: Latino – Ingles | 5% Recuperación | Servidores: Mega – Uptobox – 1fichier

MediaInfo

Complete name : X-Men First Class (2011) Dual Full 1080p BRrip.mkv
Format : Matroska
Format version : Version 4 / Version 2
File size : 3.68 GiB
Duration : 2 h 11 min
Overall bit rate : 3 997 kb/s
Movie name : X-Men First Class (2011) Dual Full 1080p BRrip
Encoded date : UTC 2018-03-02 19:29:23
Writing application : mkvmerge v15.0.0 (‘Duel with the Devil’) 64-bit
Writing library : libebml v1.3.5 + libmatroska v1.4.5

Video
ID : 1
Format : AVC
Format/Info : Advanced Video Codec
Format profile : High@L4.1
Format settings : CABAC / 2 Ref Frames
Format settings, CABAC : Yes
Format settings, ReFrames : 2 frames
Codec ID : V_MPEG4/ISO/AVC
Duration : 2 h 11 min
Bit rate : 3 098 kb/s
Width : 1 920 pixels
Height : 1 080 pixels
Display aspect ratio : 16:9
Frame rate mode : Constant
Frame rate : 23.976 (24000/1001) FPS
Color space : YUV
Chroma subsampling : 4:2:0
Bit depth : 8 bits
Scan type : Progressive
Bits/(Pixel*Frame) : 0.062
Stream size : 2.85 GiB (78%)
Title : X-Men First Class (2011) Dual Full 1080p BRrip
Writing library : x264 core
Default : Yes
Forced : No
Color range : Limited
Color primaries : BT.709
Transfer characteristics : BT.709
Matrix coefficients : BT.709

Audio #1
ID : 2
Format : AC-3
Format/Info : Audio Coding 3
Codec ID : A_AC3
Duration : 2 h 11 min
Bit rate mode : Constant
Bit rate : 448 kb/s
Channel(s) : 6 channels
Channel positions : Front: L C R, Side: L R, LFE
Sampling rate : 48.0 kHz
Frame rate : 31.250 FPS (1536 SPF)
Bit depth : 16 bits
Compression mode : Lossy
Stream size : 422 MiB (11%)
Title : Latino
Language : Spanish
Service kind : Complete Main
Default : Yes
Forced : No

Audio #2
ID : 3
Format : AC-3
Format/Info : Audio Coding 3
Codec ID : A_AC3
Duration : 2 h 11 min
Bit rate mode : Constant
Bit rate : 448 kb/s
Channel(s) : 6 channels
Channel positions : Front: L C R, Side: L R, LFE
Sampling rate : 48.0 kHz
Frame rate : 31.250 FPS (1536 SPF)
Bit depth : 16 bits
Compression mode : Lossy
Stream size : 422 MiB (11%)
Title : Ingles
Language : English
Service kind : Complete Main
Default : No
Forced : No

Text #1
ID : 4
Format : UTF-8
Codec ID : S_TEXT/UTF8
Codec ID/Info : UTF-8 Plain Text
Duration : 2 h 3 min
Bit rate : 55 b/s
Count of elements : 1325
Stream size : 50.0 KiB (0%)
Title : Latino
Language : Spanish
Default : No
Forced : No

Text #2
ID : 5
Format : UTF-8
Codec ID : S_TEXT/UTF8
Codec ID/Info : UTF-8 Plain Text
Duration : 2 h 2 min
Bit rate : 51 b/s
Count of elements : 1488
Stream size : 46.1 KiB (0%)
Language : English
Default : No
Forced : No


Descargas

Enlaces Públicos

Contraseña: micinehd.com

Links VIP

Links VIP

Inicia Sesión para ver enlaces directos!