Información

En el año 2035, los robots son unos dispositivos que usamos todos los días y en quienes confiamos, excepto un detective paranoico (Smith), investigando lo que solo él cree que es un crimen perpetrado por un robot. El caso lo lleva a descubrir algo aún peor que amenaza la raza humana. Will Smith protagoniza este thriller de acción inspirado en la clásica colección de relatos cortos de Isaac Asimov, y llevado al cine por el dinámico y visionario director Alex Proyas (Dark City, El cuervo). En esta película se emplean las más modernas y espectaculares técnicas de efectos visuales para dar vida al mundo de los robots.


Capturas


Datos Técnicos

I, Robot (2004)
BRRip 1080p MKV | Resolución: 1920×1080p | Codec: H.264 | Tamaño: 3.3 GB
Idiomas: Latino AC3 5.1 BD – Ingles AC3 5.1 BD
Subtitulos: Latino – Ingles | 5% Recuperación | Servidores: Mega – Uptobox – 1fichier

MediaInfo

Complete name : I, Robot (2004) Dual Full 1080p BRrip.mkv
Format : Matroska
Format version : Version 4 / Version 2
File size : 3.36 GiB
Duration : 1 h 54 min
Overall bit rate : 4 197 kb/s
Movie name : I, Robot (2004) Dual Full 1080p BRrip
Encoded date : UTC 2018-03-02 02:37:00
Writing application : mkvmerge v15.0.0 (‘Duel with the Devil’) 64-bit
Writing library : libebml v1.3.5 + libmatroska v1.4.5

Video
ID : 1
Format : AVC
Format/Info : Advanced Video Codec
Format profile : High@L4.1
Format settings : CABAC / 2 Ref Frames
Format settings, CABAC : Yes
Format settings, ReFrames : 2 frames
Codec ID : V_MPEG4/ISO/AVC
Duration : 1 h 54 min
Bit rate : 3 299 kb/s
Width : 1 920 pixels
Height : 1 080 pixels
Display aspect ratio : 16:9
Frame rate mode : Constant
Frame rate : 23.976 (24000/1001) FPS
Color space : YUV
Chroma subsampling : 4:2:0
Bit depth : 8 bits
Scan type : Progressive
Bits/(Pixel*Frame) : 0.066
Stream size : 2.64 GiB (79%)
Title : I, Robot (2004) Dual Full 1080p BRrip
Writing library : x264 core
Default : Yes
Forced : No
Color range : Limited
Color primaries : BT.709
Transfer characteristics : BT.709
Matrix coefficients : BT.709

Audio #1
ID : 2
Format : AC-3
Format/Info : Audio Coding 3
Codec ID : A_AC3
Duration : 1 h 54 min
Bit rate mode : Constant
Bit rate : 448 kb/s
Channel(s) : 6 channels
Channel positions : Front: L C R, Side: L R, LFE
Sampling rate : 48.0 kHz
Frame rate : 31.250 FPS (1536 SPF)
Bit depth : 16 bits
Compression mode : Lossy
Stream size : 368 MiB (11%)
Title : Latino
Language : Spanish
Service kind : Complete Main
Default : Yes
Forced : No

Audio #2
ID : 3
Format : AC-3
Format/Info : Audio Coding 3
Codec ID : A_AC3
Duration : 1 h 54 min
Bit rate mode : Constant
Bit rate : 448 kb/s
Channel(s) : 6 channels
Channel positions : Front: L C R, Side: L R, LFE
Sampling rate : 48.0 kHz
Frame rate : 31.250 FPS (1536 SPF)
Bit depth : 16 bits
Compression mode : Lossy
Stream size : 368 MiB (11%)
Title : Ingles
Language : English
Service kind : Complete Main
Default : No
Forced : No

Text #1
ID : 4
Format : UTF-8
Codec ID : S_TEXT/UTF8
Codec ID/Info : UTF-8 Plain Text
Duration : 1 h 53 min
Bit rate : 54 b/s
Count of elements : 1137
Stream size : 45.2 KiB (0%)
Language : Spanish
Default : Yes
Forced : No

Text #2
ID : 5
Format : UTF-8
Codec ID : S_TEXT/UTF8
Codec ID/Info : UTF-8 Plain Text
Duration : 1 h 41 min
Bit rate : 59 b/s
Count of elements : 1133
Stream size : 44.1 KiB (0%)
Language : English
Default : No
Forced : No


Descargas

Enlaces Públicos

Contraseña: micinehd.com

Links VIP

Links VIP

Inicia Sesión para ver enlaces directos!